#TITLE:Emiya (techno remix);
#SUBTITLE:;
#ARTIST:type moon;
#TITLETRANSLIT:;
#SUBTITLETRANSLIT:;
#ARTISTTRANSLIT:;
#CREDIT:;
#BANNER:emiya-bann.jpg;
#BACKGROUND:emiya-bg.jpg;
#LYRICSPATH:;
#CDTITLE:cdtitle.png;
#MUSIC:emiya (techno remix).mp3;
#OFFSET:-0.300;
#SAMPLESTART:30.300;
#SAMPLELENGTH:12.000;
#SELECTABLE:YES;
#BPMS:0.000=200.000;
#STOPS:;
#BGCHANGES:;
// cache tags:
#FIRSTBEAT:0.000;
#LASTBEAT:324.000;
#SONGFILENAME:Songs/Music V.I.P ^_^/emiya (techno remix)/emiya (techno remix).sm;
#HASMUSIC:1;
#HASBANNER:1;
#MUSICLENGTH:100.153;
// end cache tags

//---------------dance-single - ----------------
#NOTES:
     dance-single:
     :
     Challenge:
     18:
     1.000,1.000,1.000,0.060,1.000,1057.000,517.000,6.000,0.000,2.000:
1000
0000
0110
0000
0000
0110
0000
0000
0000
0000
0011
0000
0000
0011
0000
0000
,
0100
0000
1000
0000
0100
0011
1000
0110
,
0001
0000
1100
0000
0000
1100
0000
0000
0000
0000
1010
0000
0000
1010
0000
0000
,
0100
0010
0001
0110
,
1000
0000
0101
0000
0000
0101
0000
0000
0000
0000
0110
0000
0000
0110
0000
0000
,
0011
0000
0010
0000
0100
0000
1100
0011
,
1100
0000
1010
0000
0000
1010
0000
0000
0011
0000
1100
0000
0000
1100
0000
0000
,
0110
0000
0000
0000
1100
0000
0000
0000
0101
0000
0000
0101
1010
0000
0101
0000
,
1100
0001
0010
0100
0011
0100
1000
0001
1100
0010
0001
0100
1010
0100
0001
0100
,
1010
0001
0010
0100
1001
0100
1000
0001
0110
0000
0110
0000
0110
0000
0000
0000
,
1010
0001
0100
0001
1010
0100
0010
0001
1010
0100
0010
0100
1010
0001
0100
0010
,
1100
0010
0001
1000
0110
1000
0100
0010
1001
0000
1001
1001
1001
0000
0000
0000
,
0110
1000
0100
0010
1100
0001
0100
0010
0101
1000
0100
1000
0101
0010
0100
0010
,
1001
0010
0100
0001
1010
0100
0001
0010
1100
0000
1100
0000
1100
0000
0000
0000
,
1100
0001
0010
0001
1100
0001
0100
0010
0101
0010
0100
1000
0110
0001
0100
0001
,
1100
0110
0011
1100
0011
1100
0110
1010
0110
0011
1100
1010
0101
0110
1100
0011
,
1100
0001
1010
0100
1010
0101
0010
1000
0110
1000
0101
0010
1100
0011
0100
1000
,
0011
0100
0010
0001
1010
0100
0010
0100
0011
1000
0100
0001
0110
0001
1000
0001
,
1100
0010
1100
0010
0101
1010
0001
1000
0101
1000
0110
1000
0011
1100
0010
1000
,
0110
1000
0100
1000
0101
0010
0001
0010
1100
0010
0001
1000
0110
1000
0010
0100
,
1001
0100
1010
0001
1010
0101
1000
0010
1001
0100
0011
1000
0101
1010
0001
0010
,
1100
0001
1000
0010
0101
0010
0100
0010
1100
0010
0100
0001
1100
0010
1000
0100
,
1010
0001
1010
0100
1001
0110
0001
0010
0101
1000
0110
1000
0011
1100
0010
0100
,
0011
1000
0001
0100
1001
0010
1000
0100
1010
0001
0010
1000
0110
0001
0100
0001
,
1100
0001
0110
0001
1010
0101
1000
0100
0011
1000
0101
1000
0011
1100
0010
0001
,
0110
1000
0010
0001
1010
0001
0100
0010
1001
0100
0010
0100
1001
0010
0100
0010
,
1001
0010
1100
0010
1100
0011
0100
0010
0101
0010
1100
0001
1100
0011
1000
0100
,
0011
0100
1000
0010
0101
0010
0001
0100
1010
0001
0100
0001
1010
0100
1000
0001
,
0110
0001
1100
0010
0101
1010
0100
1000
0011
1000
0110
0001
1100
0011
0100
0010
,
0101
0010
0100
0001
0110
0001
0100
1000
0101
0010
1000
0100
1001
0010
1000
0001
,
1010
0100
0011
1000
0101
1010
0001
0010
1001
0100
0011
1000
0101
1010
0001
0100
,
1010
0001
1100
0010
1100
0001
1010
0100
1010
0101
1010
0100
1001
0100
0011
0100
,
1001
0110
1100
0110
1010
1001
0011
0101
,
1010
0011
1010
0011
0110
0110
0110
1001
,
1010
0110
0011
0110
1010
0101
0110
1010
,
0101
0000
1010
0000
0110
0000
0011
0000
0110
0000
0110
1001
0110
0000
0110
0000
,
0011
1001
0110
1001
1010
1100
0110
0101
,
0011
1010
0101
0110
0101
0101
0101
1010
,
0110
1001
1010
0110
0101
0110
1010
1001
,
1100
0000
0101
0000
0011
0000
1010
0000
1100
0000
1100
0011
1100
0000
1100
0000
,
0101
1100
0011
1010
1100
0101
1100
1001
,
0101
0011
1010
1001
0110
0110
0110
1100
,
0101
1001
0101
0110
0011
1001
0110
0101
,
1010
0000
1001
0000
0011
0000
0110
0000
0011
0000
0011
1100
0011
0000
0011
0000
,
1001
1100
0101
1001
0110
1001
1010
1001
,
0011
0110
1010
0110
1010
1010
1010
0110
,
0011
1001
0011
1100
1001
0101
0110
1010
,
0011
0110
1100
0110
0101
1100
0110
1100
0011
0101
0110
1001
1100
0110
1001
1010
,
0101
1000
0100
0010
1100
0010
0001
0010
1001
0100
0010
1000
0011
1000
0010
0100
,
1010
0100
0010
0001
1010
0100
1000
0001
1100
0010
0100
1000
0011
0100
0010
1000
,
0110
0001
0100
0010
1001
0010
0100
0001
1100
0010
0100
0001
1100
0001
0010
0100
,
1001
0010
0100
0010
1100
0001
0100
1000
0011
0100
1000
0100
1001
0010
1000
0100
,
0011
1000
0100
1000
0011
1000
0100
1000
0011
0100
0010
1000
0110
0001
0100
0010
,
1001
0010
0001
0100
0011
1000
0010
0001
1010
0100
1000
0100
1010
0001
0100
0010
,
0101
1000
0001
0100
1001
0010
0100
0010
1100
0001
0010
0100
0011
1000
0100
0001
,
1010
0100
0001
1000
0101
0010
0001
0010
1100
0001
0100
0001
1010
0100
1000
0001
,
0110
1000
0001
0010
0101
1000
0001
0010
1100
0001
0100
0010
1001
0010
0100
0010
,
0101
0010
0100
1000
0101
1000
0010
0001
0110
1000
0100
0001
0110
1000
0100
1000
,
0011
0100
1000
0001
0110
1000
0010
0001
1010
0100
0010
0100
1010
0001
0010
0100
,
1010
0001
0010
0100
1010
0100
1000
0001
1100
0001
0010
0100
0011
0100
1000
0001
,
0110
0001
0100
0001
1010
0100
0010
0001
1100
0001
0100
0010
1100
0010
1000
0010
,
0101
0010
0100
0010
1001
0100
0010
0001
1010
0100
1000
0010
0101
0010
0100
0001
,
1010
0100
0010
0001
1010
0100
1000
0010
1001
0100
0010
0100
1010
0001
1100
0001
,
1100
0010
0101
0010
0101
1000
0110
0001
0110
1001
0110
1001
0110
1001
0110
1001
,
0110
1000
0011
1000
0110
0001
1100
0001
1010
0100
0011
1000
0110
0001
1010
0100
,
0011
0100
1010
0001
1100
0010
0101
0010
1100
0001
1010
0100
1001
0010
1100
0001
,
0110
1000
0101
0010
1100
0010
0101
0010
1001
0010
0101
1000
0110
0001
1100
0010
,
0101
1000
0110
0001
1100
0001
0110
1000
0010
1100
0010
0001
1100
0010
1100
0010
,
1001
0010
1100
0001
1100
0010
0101
1000
0110
0001
1100
0010
0101
1000
0110
1000
,
0011
1000
0101
0010
1001
0100
0011
0100
1010
0100
1001
0010
0101
1000
0011
0100
,
1010
0100
0011
1000
0110
0001
1010
0100
0011
1000
0110
0001
1010
0100
1010
0001
,
1100
0010
0101
1000
0110
0001
0110
1000
0101
0010
1001
0010
2200
0000
0000
0000
,
3311
0100
0011
0100
1001
0100
1010
0001
0110
0001
1100
0010
0101
1000
0011
0100
,
1010
0001
0110
0001
1010
0001
0110
1000
0011
1000
0110
0001
1010
0001
1100
0001
,
1010
0100
1001
0100
0011
1000
0101
1000
0110
0001
1100
0001
1010
0100
1001
0100
,
1010
0100
0011
1000
0110
0001
0110
1000
0101
0010
1001
0010
2200
0000
0000
0000
,
3311
1000
0011
0100
1010
0001
1100
0010
0101
0010
1100
0010
1001
0100
1010
0001
,
1010
0100
0011
1000
0101
0010
1001
0100
0011
0100
1001
0010
1100
0010
1001
0100
,
1001
0010
0101
1000
0100
0010
1100
0011
1100
0001
1010
0100
0011
1000
0110
0001
,
1010
0001
0110
1000
0011
0100
1010
0001
0110
0001
1010
0100
0011
1000
0110
0000
,
2002
0000
0000
0000
,
3003
0000
0000
0000
;
